Ffmpeg Audio Pts

Default value is 0. 2 [13 June 2015. For example: To extract sound from a video and save it as MP3, you can use command line: $ ffmpeg -i video1. Default is audio. Anyway, I decided to mirror the behaviour of FFmpeg’s output-example. [3] avcodec_receive_packet() 输出 packet 时,packet. 打开音频:int audio_stream_component_open(VideoState *is, int stream_index) { AVFormatContext *ic = is->ic; AVCodecContext *codecCtx;. Have a short video clip ripped from a DVD (probably using mplayer -dumpstream). -sync type Set the master clock to audio ("type=audio"), video ("type=video") or external ("type=ext"). mp4 -filter:v "setpts=2*PTS" output. After the semicolon (:) may be the stream specifier - supposing that you have only one video and one audio streams in your input files, you may simply use v for the video stream, and a for the. I am trying to mux H264 encoded data and G711 PCM data into mov multimedia container. The output is (almost) empty. Ffmpeg transcode audio. More information Maritime radio and radio on aircrafts. My question is: Are there any alternatives to the atempo filter to use with avconv, or how to speed up audio AND video using avconv?. ffmpeg \ -i input_file \ -filter: v modifies the presentation time stamp (PTS)-an no audio stream (mnemonically «audio no») output_file path, name and extension. Note that this filter is not FDA approved, nor are we medical. If you care to sync the audio speed with the. Multiplexing to a TS. Use ffmpeg to convert an audio file to VBR AAC in an M4A (MP4) container: ffmpeg -i input. FFmpeg sometimes has a hard time figuring out the input frames count. * FFmpeg is free software; you can redistribute it and/or: 7 * modify it under the terms of the GNU Lesser General Public: 8 * License as published by the Free Software Foundation; either: 9 * version 2. This may only be set when the video codec is not set or set to rawvideo. 47,setpts=PTS. 0: Video: libx264, yuv420p, 640x480, q=2-31, 90k tbn, 1200k tbc Stream #0. [y/N] y Output #0, h264, to 'output. pts,这是视频层的 pts,用户写输出前应将其转换为容器层的 pts [4] avcodec_send_frame() 发送 NULL frame 时,编码器进入 flush 模式 [5] avcodec_send_frame() 发送第一个 NULL 会返回成功,后续的 NULL 会返回 AVERROR_EOF. 436 // input pipe may have been closed by the program that ran ffmpeg. 100000:first_pts=0" helps to keep your audio lined up with the beginning of your video. Which ffmpeg command should I use to extract each frame number associated with its timestamp (time in ms from the starting of the video) ? Expected result : frame, ts 1, 34 2, 67 3, 101 4, 12. 5" -vn output. Note that in the following examples, the audio stream is not changed, so it should ideally be disabled with -an. Also, you can use various audio transcoding options to the output file as shown below. This utility test was uploaded by Phoronix Test Suite. https://motiondesigntechnology. mkv -filter:a "atempo=2. cropdetec can auto-detect crop size. pts with ffmpeg::av_rescale_q() but this is only called after you have encoded the frame ! When used with the MP4V codec the avcodec_encode_video() sets the pts value correctly itself. ffmpeg实现音频resample(重采样)(二) 时间 2015-08-06 本篇文章将增加AVFifoBuffer和音频样本是av_sample_fmt_is_planar的样式采样率讲解,下面上代码. It uses ffmpeg to concatenate the input TSs and it generates the output TS that is the result of concatenate all input TSs It's very important to know that ffmpeg concat uses the last PTS of input file number N to set the first PTS of the file N+1. Do initialization using av_register_all(); // 2. My question is: Are there any alternatives to the atempo filter to use with avconv, or how to speed up audio AND video using avconv?. 1 of the License, or (at your option) any later version. FFmpeg is developed. It considers 1 to be the default volume, so 2 would be double the original, and 0. I am attempting to seek both audio and video streams for an mp4 using the ffmpeg av_seek_frame method. Processing streams with both audio and video in ffmpeg gets weird. There are three output files specified, and for the first two, no -map options are set, so ffmpeg will select streams for these two files automatically. I am using ffmpeg library inside my project to extract packets from media stream. mpg Output video, as you indicated, dropped the source data stream 0:0. What I need is to give ffmpeg the video and audio as separate inputs, instruct it to delay our audio and re-assemble the two streams into one resultant movie file. That is to use asetrate. By doing this, FFmpeg will crash because of a buffer overrun. FFmpeg is a command-line tool that uses commands to convert audio or video formats. mp4 This resulted in really bad audio quality. This merges Libav commit 3e265ca. Set audio device buffer size in milliseconds (which can directly impact latency, depending on the device). mkv is a Matroska container file and accepts video, audio and subtitle streams, so ffmpeg will try to select one of each type. Now we're going to do the same sort of thing with the video display. 4 -af />/asetrate=48000*1. pts, despite the documentation claiming that frame->pkt_pts is the. Take a look at this example for some ideas. Libswresample (lswr) is a library that handles audio resampling, sample format conversion and mixing. Using ffmpeg, I'm recording a talk, its audio with a semi-distant microphone. A complete, cross-platform solution to record, convert and stream audio and video. My co-worker checked audio PTS information of problematic based on avidemux and Audio PTS is just OK. Any seek used after a vframes moves one frame at a time unti the timestamp is reached, while any seek time before jumps "close to" the timestamp. For example, to compute the CRC of each decoded input audio frame converted to PCM unsigned 8-bit and of each decoded input video frame converted to MPEG-2 video, use the. mp3 audio file. $ ffmpeg -i input. As landscape management providers in the greater Northern Virginia area, we are trained to work successfully with the region's unique and challenging climate conditions, giving yo. Monkey's Audio: DE: apng: Animated Portable Network Graphics: D: aqtitle: AQTitle subtitles: DE: asf: ASF (Advanced / Active Streaming Format) D: asf_o: ASF (Advanced / Active Streaming Format) E: asf_stream: ASF (Advanced / Active Streaming Format) DE: ass: SSA (SubStation Alpha) subtitle: DE: ast: AST (Audio Stream) DE: au: Sun AU: DE: avi. setpts ('PTS-STARTPTS') basically resets the timestamp to 0 after a trim filter has been passed. ffmpeg's mpeg2video encoder only supports "zero" and "epzs" as motion estimation methods; you could omit this option and go with the default, but as a word of warning, if you are outputting to one or more additional codecs (e. Speed up or Slow down the audio. More information Maritime radio and radio on aircrafts. mp4, since it has the greatest number of channels. yuv out%03d. Active 3 years ago. com/ffmpeg. Summary changed from PTS: DTS: invalid, clipping with pcm audio codec to PTS: DTS: invalid, clipping when recording alsa comment:10 Changed 7 years ago by MrNice I removed the line 193. 04, start: 2. 04 or newer can just install ffmpeg from the repository. FFMPEG component FFVCL Standard 5. Using ffmpeg, I'm recording a talk, its audio with a semi-distant microphone. By doing this, FFmpeg will crash because of a buffer overrun. Watch on youtube. And so I request that FFmpeg team inspect this problem. It includes libavcodec, the leading audio/video codec library used by several other projects. 1997-2000 Toyoya Camry Car Audio (NE Salem) < image 1 of 1 > condition: good. For example to copy with ffmpeg the entire Audio-CD in /dev/sr0, you may run the command: ffmpeg -f libcdio -i /dev/sr0 cd. Now feel free to try it with your audio device. Of course this is set for each audio track individually. mp4 Input #0, mov,mp4,m4a,3gp,3g2,mj2, from '1. Now we can finally implement our get_audio_clock function. https://motiondesigntechnology. It will become the default at the next libavformat major bump. @: pts' Linux audio recording tutorial. If you use a larger value, the video will display in slower motion. The FFmpeg libav provides these info through its API: fps = AVStream->avg_frame_rate; tbr = AVStream->r_frame_rate; tbn = AVStream->time_base. mp4 />//>/This resulted in really bad audio quality. I am taking dranger's first tutorial as the source and I will build it using Visual C++ 6. Creates video from Image, adjustable length 7. h264': Metadata: encoder : Lavf53. mp4 that is a repeating copy of input. Video may have delayed frames, which means the input frame and output frame may refer to differently ordered units. I used it like this: ffmpeg -i source. Moreover I noticed that the difference between the two is big exactly at the places where audio and video are out of sync. Default value is 0. The second stream, called “stream #0. Then, the raw video data is transferred into MediaCodec's APIs in the Java layer for hardware decoder. Open input file usin. Replace the names and formats accordingly. Without -fflags +igndts a proper output is created. I might actually go a little further and post another explanation of the command. 264 and mpeg1L2 audio to mp4/mov using -fflags +igndts, av_interleaved_write_frame() reports: Invalid argument, pts (-10800) < dts (-3600). Now we want to implement a video clock similar to the audio clock we had last time: an internal value that gives the current time offset of the video currently being played. r/ffmpeg: FFmpeg is the leading multimedia framework, able to decode, encode, transcode, mux, demux, stream, filter and play pretty much anything … Press J to jump to the feed. 092880 pts_time=0. ffprobe Running ffprobe:. The PTS is given in units related to a program's overall clock reference, either Program Clock Reference (PCR) or System Clock. mp3" -filter_complex "[0:a]atrim=0:316,asetpts=PTS-STARTPTS[aud1];[1:a]atrim=0:172,asetpts=PTS-ST ARTPTS[aud2]" -map 0:v -map "[aout]" -c:v copy -c:a libmp3lame New. PA is configured (via null sinks) to take audio from output capture and the USB mic, and that bit works, but the recorded result is full of audible glitches, slowing down (speed and pitch) and crackles. Joining videos in Xabe. Example command. I am taking dranger's first tutorial as the source and I will build it using Visual C++ 6. CVE-2018-14395: Description: libavformat/movenc. The PTS is given in units related to a program's overall clock reference, either Program Clock Reference (PCR) or System Clock. The parameters which define two inputs where the second input will be delayed for N seconds, goes like this:. The same can be done to change the video as well as the audio stream: ffmpeg-i input. This will make a Matroska container with a VP9 video stream and a Vorbis audio stream, essentially the same as the WebM we made earlier. com/yinxiangpei/articles/3892982. audio=(a0) AudioDubEx?(video,audio) From the ffplay console log. It will become the default at the next libavformat major bump. With ffmpeg, you can select the output format to which the audio and video frames are encoded before computing the CRC for each packet by specifying the audio and video codec. latm Then, looking at the created LATM file in a hex editor, and comparing the bytes with the AAC LATM/LOAS spec in the ISO standard (ISO14496-3-2009 - can be found on Google), after a bit of figuring out I worked out the problem. *http://dranger. Time difference in AVStream->time_base units from the pts of this packet to the point at which the output from the decoder has converged independent from the availability of previous frames. FFmpeg RTSP send audio stream to Wowza Streaming Cloud I am trying to send an audio-stream to my Wowza Cloud Service (trial account) using RTSP. Generate pts. This will be used next time for synchronizing the audio with the video. audio_decode_frame(), Generated on Fri Oct 26 02:39:51 2012 for FFmpeg by 1. 6 Changing options at runtime with a command. This will be used next time for synchronizing the audio with the video. See ffmpeg -filters to view which filters have timeline support. 10 * 11 * FFmpeg is distributed in the hope that it will be useful, 12. ogg, or any other audio formats. Mysteriously the input. ffmpeg time_base ffmpeg存在多个时间基准(time_base),对应不同的阶段(结构体),每个time_base具体的值不一样,ffmpeg提供函数在各个time_base中进行切换。 ///< presentation time stamp in time_base units int64_t dts; 上面的代码是每display一个picture,就与audio的PTS. ffmpeg seems to drop frames. 046440 pts_time=0. How I can split audio into complete segments (split by reported PTS)? Code: ffmpeg -i test. I am taking dranger's first tutorial as the source and I will build it using Visual C++ 6. * ffmpeg-mpegts-freq-period-rename2: addition to the previous patch: I forgot one. mp4 video file to output. PTS copied from the AVPacket that was decoded to produce this frame. mp4 -filter:v "setpts=0. You can also use the -f flag to force output format, but again, the tool will try to guess the end result from your command. In the details of #26, it's mentioned that a lot of this is just weird ffmpeg behavior and not directly ffmpeg-python, though some day we might be able to work around ffmpeg's weirdness a bit on the ffmpeg-python side. I am adjusting a video (with audio track) using ffmpeg, with the goal being to move the time position of some given points of the video as precisely as possible in time (ideally, with an accuracy o. Then you don't have to worry about including and installing all the right dependencies and codecs you will be using. Why is packet. Sometimes you have an audio file that's just too quiet to hear, or worse, one that's obnoxiously loud. The objective was to create video that was approximately 3 Mbps at a “decent” resolution; this video would be manually edited and then converted to Web quality. pts, despite the documentation claiming that frame->pkt_pts is the. 0 aq= 314KB vq= 8552KB sq= 0B f=0/0 /0. cropdetec can auto-detect crop size. Hole stream duration is ~5s, but audio PTS goes to ~334s. In addition, most audio can have more than one channel for stereo or surround, so for example, if the sample is in stereo, the samples will come 2 at a time. mpg Output video, as you indicated, dropped the source data stream 0:0. Page 3-vid2bb. If I stayed at obs head and revert to ffmpeg-3. * * FFmpeg is distributed in the hope that it will be useful,. To increase video play back speed command line is: $ ffmpeg -i video. 6 Changing options at runtime with a command. The -ss (seek) flags tell FFmpeg to jump to a certain timestamp, and -vframes 1 says to extract just one frame. With ffmpeg, you can select the output format to which the audio and video frames are encoded before computing the CRC for each packet by specifying the audio and video codec. pts != frame->pkt_pts in AVFrame? ffmpeg. ffmpeg存在多个时间基准(time_base),对应不同的阶段(结构体),每个time_base具体的值不一样,ffmpeg提供函数在各个time_base中进行切换。 搞清楚各个time_base的来源,对于阅读ffmpeg的代码很重要。. The master clock is used to control audio-video synchronization. mp3 ~ $ ffmpeg -i source. If you care to sync the audio speed with the. Getting video Information using ffmpeg. FFMpeg – Transcode, copy flv to mp4 and more by RobinJack0r · Published May 23, 2014 · Updated April 13, 2019 (ffmpeg, ffplay and ffprobe) FFMpeg allows you to convert Video and Audio files to several different formats and codecs, as well as cutting, resizing and other functions. Examples · Full ffmpeg example taking 2 audio inputs, 1st input to be compressed depending on the signal of 2nd input and later compressed signal to be merged with 2nd input: ffmpeg -i main. If I revert obs to a33db9a (w/3. mp4, since it has the greatest number of channels. html 這篇文章-(void)transferToMP4. mkv -codec:video libx264 -codec:audio copy /volume1/video/test. 5*PTS" output. Press question mark to learn the rest of the keyboard shortcuts. [[email protected]: ~]$ ffprobe -hide_banner 1. avi video_audio_mix. FFmpeg is a versatile video processing software supporting various video/audio formats for the standard ABR transcoding workflow. This test uses FFmpeg for testing the system's audio/video encoding performance. 4 -af asetrate=48000*1. video didn't work for me, but the following. webm -filter_complex "[0:v][1:v]hstack=inputs=2[v];[a:0][1:a]amerge[a]" -map "[v]" -map "[a]" -ac 2 merged. FFmpeg is powerful audio and video converter, so It’s possible to convert media files between different formats. 10 * 11 * FFmpeg is distributed in the hope that it will be useful, 12. 10 on FC 16, the version available from rpmfusion. 5 and 1, respectively. It can be used to do an unbelievable range of things and it's being utilized by virtually anyone who's doing any form of video processing. Conversion is the main class to handle FFmpeg conversions. FFmpegは、単体ではGUIを持たないツールでUNIX コマンドのように振る舞う。 その為、対話式アプリケーションとして使用される場合、フロントエンドを用いる事も多い。 コマンドラインから実行するCUIとして配布されているのは、ユーザが必要とすればフロントエンドを利用でき. 04 or newer can just install ffmpeg from the repository. mkv Speeding up/slowing down audio. Interaction with lswr is done through SwrContext, which is allocated with swr_alloc() or swr_alloc_set_opts(). ffmpeg -i incorrect-audio-file. 25,atempo=1/1. $ ffmpeg -i input. 97 A-V:18166. 162540 pts_time=0. but by using -codec copy, you are bypassing the decoder. 00001 /* 00002 * Audio Interleaving { 00115 // rewrite pts and dts to be decoded time line Generated on Fri Oct 26 02:39:39 2012 for FFmpeg by. Active 2 months ago. You can change the speed of your video using the setpts (set presentation time stamp) filter of FFmpeg. The avi file has only one video and one audio stream. How to Install FFmpeg on Windows. Plays segment to check settings by right clicking image. PTS copied from the AVPacket that was decoded to produce this frame. 1:10002 > 10000. mp4 -vn output. ffmpeg -f dshow -i audio="Microphone (HD Pro Webcam C920)" -acodec pcm_mulaw -b:a 64 -ac 1 -ar 8000 -f rtp rtp://224. mp3 audio file. It is common for a container to have the beginning of the video and the beginning of the audio start at different points. , 51 Franklin Street, Fifth Floor, Boston, MA 02110-1301 USA 20 */. In the end, seeking was my biggest headache for my FFmpeg decoding plugin. ffplay analogue) - ffexample. You can also use the -f flag to force output format, but again, the tool will try to guess the end result from your command. FFmpeg checks the input file for a valid format and makes asumptions about the video and audio format for the output, based only on the specified output format (aka "container" or "wrapper"), MP4. ffmpeg \ -i input_file \ -filter: v modifies the presentation time stamp (PTS)-an no audio stream (mnemonically «audio no») output_file path, name and extension. FFmpeg has added a realtime bright flash removal filter to libavfilter. 1“, is the audio track. mp4 Format : MPEG-4 Format profile : Base Media / Version 2 Codec ID : mp42 File size : 61. Thilo Borgmann Thu, 05 Mar 2020 14:00:22 -0800 Hi, fixes infinite loop waiting for input using e. It can also convert between arbitrary sample rates and resize video on the fly with a high quality polyphase filter. Creating a mosaic/tile of screenshots from a movie Seeking and cutting sections of a video. com by David Winterbottom #:2# # commandlinefu. I have encountered an issue when seeking that I have remedied by changing my seek order, but. 116100 pts_time=0. 2 [13 June 2015. Examples: Write an mp3 with an ID3v2. * * FFmpeg is distributed in the hope that it will be useful,. Unix & Linux Stack Exchange is a question and answer site for users of Linux, FreeBSD and other Un*x-like operating systems. sdl>git diff. In the details of #26, it's mentioned that a lot of this is just weird ffmpeg behavior and not directly ffmpeg-python, though some day we might be able to work around ffmpeg's weirdness a bit on the ffmpeg-python side. To double the speed of the video, you can use: ffmpeg -i input. 6 Changing options at runtime with a command. Select pixel format to be used by DirectShow. [input-file] is the video file or the stream URL. I think that this I is bug inside ffmpeg library. Tutorial 04: Spawning Threads Code: tutorial04. If you use. Re: [FFmpeg-devel] [PATCH] ffplay: always show stats at all log levels if requested by user Marton Balint Fri, 03 Apr 2020 08:57:15 -0700 On Fri, 3 Apr 2020, Gyan Doshi wrote:. Summary of the bug: When copying the streams of a mpeg-ts containing h. 4 -af asetrate=48000*1. PA is configured (via null sinks) to take audio from output capture and the USB mic, and that bit works, but the recorded result is full of audible glitches, slowing down (speed and pitch) and crackles. avi but i get this error:. However, ffmpeg reorders the packets so that the DTS of the packet being processed by avcodec_decode_video() will always be the same as the PTS of the frame it returns. When trying to demux (copy streams) a mkv file into video, audio and subs, with new ffmpeg-20121005-git-d9dfe9a-win32-shared my screen gets flooded with the following messages: [matroska @ 02960060] st:0 PTS: 2178655 DTS: 2178655 < 2178662 invalid, clipping [matroska @ 02960060] st:0 PTS: 2180352 DTS: 2180352 < 2180411 invalid, clipping [matroska @ 02960060] st:0 PTS: 2180362 DTS: 2180362. Timing in MPEG-2 references this clock. avi has the number 1. The format image2pipe and the -at the end tell FFMPEG that it is being used with a pipe by another program. blob: 55b5f865c79114917d1a62de16a5d7820bb269cd [] [] []. Audio 120ms ahead of the video we set audio sync so it shows + 120 (processing then audio becomes in sync to the video then is 0%). This will be useful in the following commit, after which the muxer timebase is not always available when encoding. Change audio volume level. You can have multiple audio and video tracks in an MPEG-TS stream or you can keep each live feed separate. Combine audio from video1. setpts ('PTS-STARTPTS') basically resets the timestamp to 0 after a trim filter has been passed. This device allows playing and grabbing from an Audio-CD. Print help / information / capabilities:. root #emerge --ask media-video/ffmpeg (If somebody successfully uses MPlayer/MPlayer2 to dump PCM specified chapters, feel free to add it to this Wiki page and retitle appropriately. 04 or newer can just install ffmpeg from the repository. Libswresample (lswr) is a library that handles audio resampling, sample format conversion and mixing. Thilo Borgmann Thu, 05 Mar 2020 14:00:22 -0800 Hi, fixes infinite loop waiting for input using e. pts != frame->pkt_pts in AVFrame? ffmpeg. wav -b:a 192k output. mp4 video file to output. mp4 -filter:v "crop=1080:560:0:650" -c:a copy out. To double the speed of the video, you can use: ffmpeg -i input. The ffmpeg program has numerous "switches" that help to adjust and convert audio and video files. * FFmpeg is free software; you can redistribute it and/or * modify it under the terms of the GNU Lesser General Public * License as published by the Free Software Foundation; either * version 2. 000, but I want 48. Converting video and audio has never been so easy. Because audio PTS by ffmpeg have 12 sec but real audio has 30 sec. => ffmpeg -i input. blob: ff99913d5f8ffb7a2ee0ee0a1b19237c969a8913 [] [] []. It seems we should remove following code from avisynth_read_packet function. SDL started a thread that made callbacks to a function we defined every time it needed audio. I checked my timebase to be 1/44100 and some pts values : 70754080000, 70759090000, back to back packet pts values. All that remains is to merge the two audio streams so both can be heard at the same time: ffmpeg -i synced_video. This page is a collection of FFmpeg notes and snippets. Examples · Full ffmpeg example taking 2 audio inputs, 1st input to be compressed depending on the signal of 2nd input and later compressed signal to be merged with 2nd input: ffmpeg -i main. This may result in incorrect timestamps in the output file. To increase video play back speed command line is: $ ffmpeg -i video. AVPacket is one of the few structs in FFmpeg, whose size is a part of public ABI. I receive RTP with AMR-WB and H. Generated on Fri Oct 26 02:39:50 2012 for FFmpeg by 1. Place video2. mp4" -i "AudioToReplace. pts_ptr is a pointer we use to inform audio_callback the pts of the audio packet. 4 -af asetrate=48000*1. com by David Winterbottom # Randomize lines. 1: Audio: libmp3lame, 48000 Hz, stereo, 192 kb/s Stream mapping: Stream #0:0 -> #0:0 (copy) Stream #1:0 -> #0:1 (copy) Press ctrl-c to stop encoding frame= 144 fps= 0 q=-1. I am attempting to seek both audio and video streams for an mp4 using the ffmpeg av_seek_frame method. To my knowledge ffmpeg is the only tool that could possibly do this. ffmpeg实现音频resample(重采样)(二) 时间 2015-08-06 本篇文章将增加AVFifoBuffer和音频样本是av_sample_fmt_is_planar的样式采样率讲解,下面上代码. Change 3) "Double buffer" ffmpeg_decode_video_frame() so we can look forward at the next pts within ffmpeg_decode_video_frame() for all situations instead of only in forward step searches occuring in ffmpeg_fetchibuf() Change 4) Use ffmpeg_decode_video_frame_scan() in the aforementioned forward step search to catch any skipped frames. mkv -vf "setpts=0. mp4 at High Profile, preserves the colour space of the input file, and uses a default preset. com/2017/07/18/commandline-media-helper/ https://motiondesigntechnology. One contains background audio, the other one a singing actor. Which ffmpeg command should I use to extract each frame number associated with its timestamp (time in ms from the starting of the video) ? Expected result : frame, ts 1, 34 2, 67 3, 101 4, 12. , in the most generic terms. I have encountered an issue when seeking that I have remedied by changing my seek order, but. Show off your latest ffmpeg findings or useful commands; solely ffmpeg glitches are encouraged ;3 EXAMPLE: Abuse Scale Filter; Colorspace Glitch ffmpeg -i input. For video, it will select stream 0 from B. See ffmpeg -filters to view which filters have timeline support. This merges Libav commit 3e265ca. * ffmpeg-mpegts-vbr: Changes to support VBR Transport Streams * 2 graphs showing the timing in the first 1000 TS-packets of my test- stream, illustrating the effect of the changes Both patches are against svn19750. It is opaque, so all parameters must be set with the AVOptions API. mkv format and remove a specified number of seconds. *http://dranger. mp4 indicates the input file, while rawvideo/rgb24 asks for a raw RGB output. For video, it will select stream 0 from B. Users of Ubuntu 15. If I revert obs to a33db9a (w/3. FFmpeg is a command line-only program that allows you to convert videos and audio into different formats, as well as record. Last time we added audio support by taking advantage of SDL's audio functions. The command ffmpeg -codecs will print every codec FFmpeg knows about. mp4 until the ffmpeg process is stopped: ffmpeg -stream_loop -1 -i input. 100000:first_pts=0" -map_metadata -1 -f mp4 1080p. This can help to reduce audio and video sync issues when delivering a live feed or creating VOD content. mov container when the audio and video start at different timecodes. 976fps) output and have a keyframe every two seconds (-g 48 -x264opts no-scenecut). How to convert a Video the right way h. PTS DTS flags -- Presentation Time Stamp / Decode Time Stamp. setpts ('PTS-STARTPTS') basically resets the timestamp to 0 after a trim filter has been passed. mp4 -filter:v "setpts=2. ffmpeg -i input. This is due to ffmpeg's behavior, as has been discussed in detail in #26, #208 and shown in this example. MPEG-4), you might be using another motion estimation method, and without an explicit motion estimation method specified for the mpeg2video encoder, ffmpeg. I guess there is a possibility to get a better result by using -af aresample, but I have problems to. video mp4 audio how convert tutorial from example android file Can the ffmpeg av libs return an accurate PTS? I'm working with an mpeg stream that uses a IBBP GOP sequence. I think I understand the statements intent. avi This is a typical DVD ripping example; the input is a VOB file, the output an AVI file with MPEG-4 video and MP3 audio. For video, it will select stream 0 from B. That should output an image once per second (though note that's per second of processed audio; ffmpeg will as typical run as fast as the CPU allows, at least if the output will accept data that fast. Audio! Lightworks works best with PCM audio. This will be useful in the following commit, after which the muxer timebase is not always available when encoding. Creating a mosaic/tile of screenshots from a movie Seeking and cutting sections of a video. 1, and will multiplex it with the video to a new MKV without complaining, but if I try to play that new MKV in VLC, VLC crashes! Remuxing to MKV does work if I transcode the audio from AAC to AC3 or EAC3 at this stage, but ideally I'd like to keep the original quality. I am creating AVPacket from encoded data and initially the PTS and DTS value of video/audio frames is equivalent to AV_NOPTS_VALUE. seems to work fine until i write into the file with av_interleaved_write_frame, where i get an access violation. mkv is a Matroska container file and accepts video, audio and subtitle streams, so ffmpeg will try to select one of each type. This will make a Matroska container with a VP9 video stream and a Vorbis audio stream, essentially the same as the WebM we made earlier. FFmpeg is a robust open-source framework designed for command-line-based processing of video and audio files, and widely used for format transcoding, basic editing (trimming and concatenation), video scaling, video post-production effects, and standards compliance. I'm trying to replace just a segment of audio in an existing video with another piece of audio. Download FFmpeg. This will be used next time for synchronizing the audio with the video. However, it cannot handle a number of technical requirements that are specific to Twitch’s operation. -af "aresample=async=1:min_hard_comp=0. mpg -map 0:1 -map 0:2 -target ntsc-dvd EEout. 10 on FC 16, the version available from rpmfusion. com by David Winterbottom # Randomize lines. To increase video play back speed command line is: $ ffmpeg -i video. The second stream, called "stream #0. /ffprobe -show_format -show_streams -print_format json ${file} 7570 files Format stats: mp3: 1 gif: 1 srt: 3 matroska,webm: 10 tty: 13. int swr_set_compensation (struct SwrContext *s, int sample_delta, int compensation_distance) Activate resampling compensation. ffmpeg seems to drop frames. pkt->pts = stream->read;<-----remove this line. Then you don't have to worry about including and installing all the right dependencies and codecs you will be using. For files with differing start times of video and audio streams, the PTS values should not be changed else sync will be lost. 264 & VP8? I need to convert videos, usually mp4 files to smaller sized mp4s and webms. Does everyboby know which pts and dts values do i need to send to wowza server when using FFmpeg for a 50i video. User can manipulate audio, video and subtitle through this class. The solution is specifying -fflags +genpts (must be before the input file is specified with -i ). Wowza Streaming Engine doesn't use the edit lists that some video recorders use to synchronize audio and video in a. FFmpeg-based console audio/video player (e. 5*PTS" output. mp4': Metadata: major_brand : isom minor_version : 512 compatible_brands. 4 [1 August 2015] Update ffdlls to 2. 000000 best_effort_timestamp=0 best_effort_timestamp_time=0. This library abstracts the complex command-line usage of ffmpeg into a fluent, easy to use node. ffprobe Running ffprobe:. c Commit Line Data; 85f07f22: 1 /* 115329f1: 2 * FFmpeg main. The master clock is used to control audio-video synchronization. ogg, or any other audio formats. Speed up or Slow down the audio =====. mp3 outputfile. 3GP" on which I have applied my ffmpeg command. wav Options speed Set drive reading speed. Wowza Streaming Engine doesn't use the edit lists that some video recorders use to synchronize audio and video in a. 97 A-V:18166. mp4 -vf setpts=PTS*1. % ffprobe XXX. mp4 -vn output. I checked my timebase to be 1/44100 and some pts values : 70754080000, 70759090000, back to back packet pts values. c (which is now transcoding. Examples: Write an mp3 with an ID3v2. I have encountered an issue when seeking that I have remedied by changing my seek order, but. 208980 However, after I transcoded it using the following ffmpeg command, the start time of the audio track became negative and it causes playback issue on Tizen3. * ffmpeg-mpegts-vbr: Changes to support VBR Transport Streams * 2 graphs showing the timing in the first 1000 TS-packets of my test- stream, illustrating the effect of the changes Both patches are against svn19750. 5*PTS" output. void audioSpec_init(VideoState *is, Float64 sample_rate){// is audio input available? AudioComponentDescription outputcd = {0}; // 10. => ffmpeg -i input. Download FFmpeg. but by using -codec copy, you are bypassing the decoder. 4 MiB Duration : 26mn 54s Overall bit rate mode : Variable Overall bit rate : 319 Kbps Encoded date : UTC 2015-06-05 14:26:33 Tagged date : UTC 2015-06-05 14:26:33 Audio ID : 1 Format : AAC Format/Info : Advanced Audio Codec Format profile : LC Codec ID : 40 Duration. mpg -map 0:1 -map 0:2 -target ntsc-dvd EEout. Example command. I am adjusting a video (with audio track) using ffmpeg, with the goal being to move the time position of some given points of the video as precisely as possible in time (ideally, with an accuracy o. The name of the command is the name of the option and the argument is. 116100 pts_time=0. For video, it will select stream 0 from B. * FFmpeg is free software; you can redistribute it and/or: 7 * modify it under the terms of the GNU Lesser General Public: 8 * License as published by the Free Software Foundation; either: 9 * version 2. Progi1984 - Commentaires (0) Logiciel Libre. Although MPlayer can also be used, FFmpeg seems more refined when dumping or clipping specific audio chapters from DVD or Blu-Ray media. Lmk asap! Aloha! do NOT contact me with unsolicited services or offers. Place video2. Page 3-vid2bb. The lower the PTS value, the faster the time-lapse video is generated. 1997-2000 Toyoya Camry Car Audio (NE Salem) < image 1 of 1 > condition: good. Change 3) "Double buffer" ffmpeg_decode_video_frame() so we can look forward at the next pts within ffmpeg_decode_video_frame() for all situations instead of only in forward step searches occuring in ffmpeg_fetchibuf() Change 4) Use ffmpeg_decode_video_frame_scan() in the aforementioned forward step search to catch any skipped frames. ffmpeg -i v1. ffmpeg -i incorrect-audio-file. As an exercise in learning basic FFmpeg syntax and learning how to transcode between formats, we will begin with our destEarth. png -c copy -map 0 -map 1 -metadata:s:v title="Album cover" -metadata:s:v comment="Cover (Front)" out. mp4 indicates the input file, while rawvideo/rgb24 asks for a raw RGB output. 2, require Yasm external dependency. 2 Fix audio stream selection with audio from another file V1. Say for example, to convert mp4 file to avi file, run: $ ffmpeg -i video. The part that confused me was the statement that "ffmpeg reorders the packets so that the DTS of the packet being processed by avcodec_decode_video() will always be the same as the PTS of the frame it returns". to the PCR, PTS. How to Install FFmpeg on Windows. in case of MPEG, display order of IBP is coded as IPB, and the pts of input is different from output, and the reordering introduces delay between input pts and. mp3 ~ $ ffmpeg -i source. For audio it may contain several compressed frames. -ac 2 - Specifies the number of audio channels. We're going to use a movie clip (The Good, the Bad and the Ugly) as a sample. I will use this to capture the desktop with x11grab, audio from pulse and webcam from video4linux2. Ask Question Asked 3 years ago. FFmpeg Formats Documentation: 3. The easiest way to install ffmpeg is to download a pre-built binary for your specific platform. 'fix_teletext_pts' Overrides teletext packet PTS and DTS values with the timestamps calculated from the PCR of the first program which the teletext stream is part of and is not discarded. 1997-2000 Toyoya Camry Car Audio (NE Salem) < image 1 of 1 > condition: good. If I stayed at obs head and revert to ffmpeg-3. I'm trying to use ffmpeg to record my screen and sound from Pulseaudio. In this case, though, it's generally simple to use it for a simple remux. Generated on Fri Oct 26 02:39:50 2012 for FFmpeg by 1. In the audio portion of the two lines above you will see a few filters. Examples · Full ffmpeg example taking 2 audio inputs, 1st input to be compressed depending on the signal of 2nd input and later compressed signal to be merged with 2nd input: ffmpeg -i main. My code - bool AudioVideoRecorder::WriteVideo(const unsigned char *pData, size_t iDataSize, bool const bIFrame. mp4 -pix_fmt yuv420p -r 23. mkv -c:a copy incorrect-audio. Hi There I am trying to understand the pts value in an audio encoded packet in ffmpeg. Without -fflags +igndts a proper output is created. Stereo audio is recommended for best compatability. 1 Stream #0. English application forms. This is undocumented, but both LibAV and FFmpeg do so internally. 97 A-V:18166. If you want to slow it down even more, you can use the atempo filter more than once. Joining videos in Xabe. Summary changed from PTS: DTS: invalid, clipping with pcm audio codec to PTS: DTS: invalid, clipping when recording alsa comment:10 Changed 7 years ago by MrNice I removed the line 193. First Video 14. 阅读 8K+ 收藏 0. You can also mix a video with a sound file as follows: $ ffmpeg -i audio. Check below link for more details. When using ffmpeg to compress a video, I recommend using the libx264 codec, from experience it has given me excellent quality for small video sizes. All of this is then encoded and merged into an MKV container. My question is: Are there any alternatives to the atempo filter to use with avconv, or how to speed up audio AND video using avconv?. 4 -af asetrate=48000*1. exe -i sourcefile. ffmpeg -f dshow -i audio="Microphone (HD Pro Webcam C920)" -acodec pcm_mulaw -b:a 64 -ac 1 -ar 8000 -f rtp rtp://224. The closest I've come is using this: ----- ffmpeg. 0 Lsize= 1684kB. ‘fix_teletext_pts’ Overrides teletext packet PTS and DTS values with the timestamps calculated from the PCR of the first program which the teletext stream is part of and is not discarded. ffmpeg is a very fast video and audio converter that can also grab from a live audio/video source. 25,atempo=1/1. For audio it may contain several compressed frames. I dont know how to convert that to real time. In our testbed, FFmpeg works as an encoding and decoding front-end,. I am trying to understand the pts value in an audio encoded packet in ffmpeg. It's possible to use FFmpeg to remux content from the command line. first video pts = 0 first audio pts = 0 (with padding). wav -codec:a libfdk_aac -vbr 3 output. mp4 //half speed with fps 30. 264 and mpeg1L2 audio to mp4/mov using -fflags +igndts, av_interleaved_write_frame() reports: Invalid argument, pts (-10800) < dts (-3600). if I click to the half of the video, it tries to seek. When seeking (audio), use the DTS/PTS for the first frame, because that's all you have. ffmpeg と PTS のはなし: setpts とか. -rtp_tcp Force RTP/TCP protocol usage instead of RTP/UDP. Get a new ffmpeg. Think about asetrate and aresample at the same time. avi -vn -ar 44100 -ac 2 -ab 192 -f mp3 audio3. FFmpeg Formats Documentation: 3. Recent ffmpeg also has a flag to supply the end time with -to. Lmk asap! Aloha! do NOT contact me with unsolicited services or offers. [[email protected]: ~]$ ffprobe -hide_banner 1. h264': Metadata: encoder : Lavf53. I am trying to understand the pts value in an audio encoded packet in ffmpeg. You can have multiple audio and video tracks in an MPEG-TS stream or you can keep each live feed separate. The FFmpeg resampler provides a high-level interface to the libswresample library audio resampling utilities. The FFmpeg libav provides these info through its API: fps = AVStream->avg_frame_rate; tbr = AVStream->r_frame_rate; tbn = AVStream->time_base. mp4': Metadata: major_brand : isom minor_version : 512 compatible_brands. root # emerge --ask media-video/ffmpeg (If somebody successfully uses MPlayer/MPlayer2 to dump PCM specified chapters, feel free to add it to this Wiki page and retitle appropriately. For the further development you better study the documentation and example code of ffmpeg. The closest I've come is using this: ----- ffmpeg. Joining videos in Xabe. 264 HD input file. mpg -vf "setpts=0. com/2017/07/18/commandline-media-helper/ https://motiondesigntechnology. ffmpeg -i input. mp4 -vf "setpts=2*PTS" output,mp4. Biztos hogy PTS gondod van neked? Én a helyedben kiírnám egy fájlba raw audio dataként a már 48 kHz-re átalakított hangot, és megnézném, hogy az jó-e. My co-worker checked audio PTS information of problematic based on avidemux and Audio PTS is just OK. atempo changes the tempo without changing the frequency. simplest with hstack (1) simplest with hstack (2) simplest with vstack (1) simplest with vstack (2) Using crop, and hstack (or vstack) Using `alphamerge'. Make use of Corrupt Video Repair software to easily repair any of the video file with Meizu 16s Pro phone; it requires just few steps to repair any of the damaged or corrupted video files. Generated on Fri Oct 26 02:39:50 2012 for FFmpeg by 1. Hi, i use ffmpeg together with the Unreal Engine 4 (UE4) to record audio/video. mp3 audio file. 할당 된 AVFrame 포인터를 디코딩 된 샘플 및 채널, 샘플 형식, 버퍼 크기의 다른 매개 변수 번호가 들어있는 버퍼와 함께 전달합니다. This is due to ffmpeg's behavior, as has been discussed in detail in #26, #208 and shown in this example. It cuts out audio and video of two segments, resets PTS for continuity, concatenates and crops them. pts,这是视频层的 pts,用户写输出前应将其转换为容器层的 pts [4] avcodec_send_frame() 发送 NULL frame 时,编码器进入 flush 模式 [5] avcodec_send_frame() 发送第一个 NULL 会返回成功,后续的 NULL 会返回 AVERROR_EOF. I bought and had installed in May 2019, drove car maybe 1000 miles and have since sold the car. mp4 The transcoding generally works, but the abismal speed of way below 1 FPS kept this from beeing a viable solution. This utility test was uploaded by Phoronix Test Suite. I am adjusting a video (with audio track) using ffmpeg, with the goal being to move the time position of some given points of the video as precisely as possible in time (ideally, with an accuracy o. pixel_format. Visit Stack Exchange. When trying to demux (copy streams) a mkv file into video, audio and subs, with new ffmpeg-20121005-git-d9dfe9a-win32-shared my screen gets flooded with the following messages: [matroska @ 02960060] st:0 PTS: 2178655 DTS: 2178655 < 2178662 invalid, clipping [matroska @ 02960060] st:0 PTS: 2180352 DTS: 2180352 < 2180411 invalid, clipping [matroska @ 02960060] st:0 PTS: 2180362 DTS: 2180362. Mysteriously the input. to the PCR, PTS. Summary of the bug: When copying the streams of a mpeg-ts containing h. Providing professional and consumer audio and video repair services for over 15 years. mp4 -c copy output. 1:10000 -flags +global_header -c:a libvo_aacenc -vn -map 0:1 -f rtp rtp://127. [output-options] apply to the output, or destination. The lower the PTS value, the faster the time-lapse video is generated. ogg, or any other audio formats. I am trying to understand the pts value in an audio encoded packet in ffmpeg. FFMPEG component FFVCL Standard 5. Creating the history video is time-consuming, since it has to process all the frames in the entire video. mkv To slow down your video, you have to use a multiplier greater than 1: ffmpeg -i input. It can also convert between arbitrary sample rates and resize video on the fly with a high quality polyphase filter. wav 16-bit little-endian at 48 kHz sampling rate. Some ffmpeg filters drop audio streams, and care must be taken to preserve the audio in the final output. I am trying to mux H264 encoded data and G711 PCM data into mov multimedia container. - Update ffmpeg test profile against upstream FFmpeg 1. Adjust PTS and DTS before mp4 video creation. mp4 and video2. 0: Video: libx264, yuv420p, 640x480, q=2-31, 90k tbn, 1200k tbc Stream #0. ; After the semicolon (:) may be the stream specifier - supposing that you have only one video and one audio streams in your input files, you may simply use v for the video stream, and a for the audio stream. FFmpeg is a free and open-source project consisting of a vast software suite of libraries and programs for handling video, audio, and other multimedia files and streams. x player or FFVCL Standard 5. A complete, cross-platform solution to record, convert and stream audio and video. 6 Changing options at runtime with a command. Place video2. 084 INFO: Audio[0] pts = 0. However, it cannot handle a number of technical requirements that are specific to Twitch’s operation. ~ $ ffmpeg -i source. -r is used to specify the output frame rate. mp3 -i cover. Now feel free to try it with your audio device. This won't harm the quality and make the command run within seconds. FFmpeg is a robust open-source framework designed for command-line-based processing of video and audio files, and widely used for format transcoding, basic editing (trimming and concatenation), video scaling, video post-production effects, and standards compliance. if I click to the half of the video, it tries to seek. 1: Audio: libmp3lame, 48000 Hz, stereo, 192 kb/s Stream mapping: Stream #0:0 -> #0:0 (copy) Stream #1:0 -> #0:1 (copy) Press ctrl-c to stop encoding frame= 144 fps= 0 q=-1. 100000:first_pts=0" helps to keep your audio lined up with the beginning of your video. MPEG audio), then it contains one frame. ffmpeg -i input. i was trying to create a dvd but unfortunately failles and display this message:ERR:Cannot infer pts for VOBU if there is no audio or Video and it is the ERR: first VOBU. I am creating AVPacket from encoded data and initially the PTS and DTS value of video/audio frames is equivalent to AV_NOPTS_VALUE. ffmpeg [input-options] -i [input-file] [output-options] [output-stream-URI]Where: [input-options] apply to the input, or source, file. With ffmpeg, you can select the output format to which the audio and video frames are encoded before computing the CRC for each packet by specifying the audio and video codec. ffmpeg mosaic from wowza streams. mkv is a Matroska container file and accepts video, audio and subtitle streams, so ffmpeg will try to select one of each type. CVE-2018-14395: Description: libavformat/movenc. FFmpeg is a free software project that produces libraries and programs for handling multimedia data. While this sounds straight forward on the face of it, the interplay of filters and controls is impossible to predict without extensive experience. AVPacket is one of the few structs in FFmpeg, whose size is a part of public ABI. This works in a somewhat interesting manner. Creates colored blank video with blank audio for using between videos. A complete, cross-platform solution to record, convert and stream audio and video. And so I request that FFmpeg team inspect this problem. mp4 Format : MPEG-4 Format profile : Base Media / Version 2 Codec ID : mp42 File size : 61. The PTS is given in units related to a program's overall clock reference, either Program Clock Reference (PCR) or System Clock. It transcodes a video file to AVC/AAC. 阅读 8K+ 收藏 0. Hi There I am trying to understand the pts value in an audio encoded packet in ffmpeg. Audio options-acodec aac - Uses the internal FFmpeg AAC codec for the audio processing. It can be used to do an unbelievable range of things and it's being utilized by virtually anyone who's doing any form of video processing. 264 HD input file. General Complete name : E:\audio. ffmpeg itsoffset for audio not working. c example sets the packet. - warns user if a frame seek mismatch occurs. mkv To slow down your video, you have to use a multiplier greater than 1: ffmpeg -i input. pixel_format.
qpa4gvqnt2ryu2 1ckpe5nigqwojgr qye3gaz0ac0e 1cko47uux7joh v2b1uo1nr7jyjb lquwl5cvwnqyyp 43c9chfowvg28k z8fg2xj5t1zeah 8j6ybvwj7dkj txvf7x278novu kqlb37s2wvnu a6wossjl6w6 xybala350pmuu ggas9l3gtxr65 9lx1b7mrr8eljc4 1uwpikwr648n0u9 k4vxob6sk9c 2usiocjlajahuzx 9lskmwffm8ata2f 0h475l9213r2fy1 f0a5l4ilbutjp y11qcvagd625bho 8zwhzicr2lu 24bcx2nbpa aknmatytvs mhlcbf0mgc5do0 7omu3eolv31j4n